<?xml version="1.0" standalone="no"?>
<!DOCTYPE svg PUBLIC "-//W3C//DTD SVG 1.1//EN" "http://www.w3.org/Graphics/SVG/1.1/DTD/svg11.dtd">
<svg xmlns="http://www.w3.org/2000/svg">
<metadata>Generated by Fontastic.me</metadata>
<defs>
<font id="du-icon-font" horiz-adv-x="512">
<font-face font-family="du-icon-font" units-per-em="512" ascent="480" descent="-32"/>
<missing-glyph horiz-adv-x="512" />

<glyph glyph-name="accordion" unicode="&#97;" d="M273 250l90 0c7 0 11 6 11 12 0 6-6 11-11 11l-90 0 0 90c0 7-6 11-11 11-7 0-12-6-12-11l0-90-90 0c-6 0-11-6-11-11 0-4 1-6 3-8 3-2 5-4 8-4l90 0 0-90c0-3 2-5 4-8 2-2 4-3 8-3 6 0 11 6 11 11 0 0 0 90 0 90z m-17-250c-141 0-256 115-256 256 0 141 115 256 256 256 141 0 256-115 256-256 0-141-115-256-256-256z m0 490c-129 0-234-105-234-234 0-129 105-234 234-234 129 0 234 105 234 234 0 129-105 234-234 234z"/>
<glyph glyph-name="close-2" unicode="&#109;" d="M305 256l197 197c13 13 13 35 0 49-14 13-36 13-49 0l-197-197-197 197c-13 13-35 13-49 0-13-14-13-36 0-49l197-197-197-197c-13-13-13-35 0-49 7-7 16-10 25-10 9 0 18 3 24 10l197 197 197-197c6-7 15-10 24-10 9 0 18 3 25 10 13 14 13 36 0 49z"/>
<glyph glyph-name="accordion-active" unicode="&#98;" d="M364 250c7 0 11 6 11 12 0 6-5 11-11 11l-205 0c-7 0-11-6-11-11 0-4 1-6 3-8 3-2 5-4 8-4z m-108-250c-141 0-256 115-256 256 0 141 115 256 256 256 141 0 256-115 256-256 0-141-115-256-256-256z m0 490c-129 0-234-105-234-234 0-129 105-234 234-234 129 0 234 105 234 234 0 129-105 234-234 234z"/>
<glyph glyph-name="dropdown-arrow" unicode="&#110;" d="M0 384l256-256 256 256z"/>
<glyph glyph-name="du" unicode="&#111;" d="M512 271c0-80-67-144-150-144-41 0-79 16-106 43-27-27-65-43-107-43-82 0-149 64-149 144 0 80 67 144 149 144 23 0 44-4 64-13l0 68c0 23 19 42 43 42 23 0 43-19 43-42l0-199c0-34 28-61 63-61 35 0 63 27 63 61l0 53c0 23 20 42 44 42 23 0 43-19 43-42z m-426 0c0-34 28-61 63-61 35 0 64 27 64 61 0 34-29 61-64 61-35 0-63-27-63-61z"/>
<glyph glyph-name="arrow-left-o" unicode="&#101;" d="M256 0c-141 0-256 115-256 256 0 141 115 256 256 256 141 0 256-115 256-256 0-141-115-256-256-256z m0 492c-130 0-236-106-236-236 0-130 106-236 236-236 130 0 236 106 236 236 0 130-106 236-236 236z m27-227l-53 52c-5 6-5 14 0 19 6 5 14 5 19 0l57-57c3-4 4-9 3-13 1-4 0-9-3-12l-57-57c-5-6-13-6-19 0-5 5-5 13 0 18z"/>
<glyph glyph-name="facebook" unicode="&#113;" d="M0 256c0 141 115 256 256 256 141 0 256-115 256-256 0-141-115-256-256-256-141 0-256 115-256 256z m274-142l0 139 39 0 5 48-44 0 0 24c0 13 1 20 19 20l24 0 0 48-38 0c-46 0-62-24-62-63l0-29-29 0 0-48 29 0 0-139z"/>
<glyph glyph-name="arrow-right" unicode="&#102;" d="M117 258c0 10 3 21 14 31l190 191c18 17 46 17 64 0 17-18 17-46 0-64l-159-158 159-159c17-17 17-46 0-63-18-18-46-18-64 0l-190 190c-11 7-14 21-14 32m7 28l190 190c21 21 53 21 74 0 7-7 14-21 14-35 0-14-3-25-14-35l-155-152 155-151c7-11 14-21 14-36 0-14-3-24-14-35-21-21-53-21-74 0l-190 191c-7 10-14 21-14 35 0 14 7 24 14 28z m257-190l-162 162 162 162c7 7 11 18 11 28 0 11-4 21-11 28-14 14-42 14-56 0l-191-190c-14-14-14-42 0-56l191-191c14-14 39-14 56 0 7 7 11 18 11 28 0 11-4 22-11 29z"/>
<glyph glyph-name="file-drop" unicode="&#81;" d="M399 28l-286 0c-7 0-13 6-13 13l0 430c0 7 6 13 13 13l225 0 0-59c0-11 8-19 18-19l56 0 0-365c0-7-6-13-13-13z m5 405l-39 0 0 44z m25 13l-46 52c-8 9-19 14-31 14l-239 0c-22 0-40-19-40-41l0-430c0-22 18-41 40-41l286 0c22 0 40 19 40 41l0 377c0 11-3 21-10 28z m-88-199c-25 27-51 54-76 81-6 6-12 6-18 0-18-19-35-38-53-56-8-9-16-17-24-26-5-6-5-13 0-18 5-5 12-4 17 1 18 19 35 37 52 56 2 1 2 4 3 6 1-1 2-2 2-2 0-2 1-3 1-4 0-31 0-27 0-58 0-20-1-40 0-60 0-10 7-16 15-12 6 2 8 7 8 14 0 50 0 64 0 114l0 7c12-13 23-25 35-37 7-8 15-16 23-25 4-4 9-5 14-2 4 3 6 8 5 13 0 3-2 6-4 8"/>
<glyph glyph-name="arrow-right-o" unicode="&#103;" d="M256 0c-141 0-256 115-256 256 0 141 115 256 256 256 141 0 256-115 256-256 0-141-115-256-256-256z m0 492c-130 0-236-106-236-236 0-130 106-236 236-236 130 0 236 106 236 236 0 130-106 236-236 236z m-33-227l52 52c6 6 6 14 0 19-5 5-13 5-18 0l-57-57c-3-4-4-9-3-13-1-4 0-9 3-12l57-57c5-6 13-6 18 0 6 5 6 13 0 18z"/>
<glyph glyph-name="heart" unicode="&#82;" d="M51 339c0-82 79-180 205-264 127 84 205 180 205 264 0 57-46 104-103 104-25 0-49-10-68-27l-24-22c-6-5-14-5-20 0l-24 22c-19 17-43 27-68 27-57 0-103-47-103-104z m205 116c27 25 63 40 102 40 85 0 154-70 154-156 0-126-128-248-245-319-6-4-16-4-22 0-118 71-245 193-245 319 0 86 69 156 154 156 39 0 75-15 102-40z"/>
<glyph glyph-name="asset" unicode="&#105;" d="M256 489c128 0 233-105 233-233 0-128-105-233-233-233-128 0-233 105-233 233 0 128 105 233 233 233z m0 23c-141 0-256-115-256-256 0-141 115-256 256-256 141 0 256 115 256 256 0 68-27 134-75 181-49 47-113 75-181 75z m-9-408c-1 0-4 0-5 1-10 3-17 13-17 23l0 82-47 0c-9 0-17 5-22 12-4 7-4 17 0 24l89 148c4 10 17 14 27 11 11-3 18-12 17-24l0-82 47 0c8 0 17-5 21-12 4-7 4-17 0-24l-88-148c-4-5-13-11-22-11z m16 280l-88-148 71-1 0-107-3-11 3 11c0 0 0 0 1 0l89 148-71 1 0 107z"/>
<glyph glyph-name="home" unicode="&#115;" d="M449 268c-8 0-15-7-15-15l0-200-115 0 0 127c0 8-7 15-15 15l-96 0c-8 0-15-7-15-15l0-127-115 0 0 200c0 8-7 15-15 15-8 0-14-7-14-15l0-214c0-8 6-15 14-15l145 0c8 0 14 7 14 15l0 127 68 0 0-127c0-8 6-15 14-15l145 0c8 0 14 7 14 15l0 214c0 8-6 15-14 15m59 0l-242 240c-5 5-15 5-20 0l-242-240c-5-6-5-15 0-20 6-6 15-6 20 0l232 230 232-230c2-3 6-4 10-4 3 0 7 1 10 4 5 5 5 14 0 20m-154 170l59 0 0-60c0-7 6-12 13-12 7 0 13 5 13 12l0 72c0 7-6 13-13 13l-72 0c-7 0-13-6-13-13 0-7 6-12 13-12"/>
<glyph glyph-name="business" unicode="&#106;" d="M479 207c0-10-7-17-16-17l-96 0 0 223c0 1 0 2 0 3l96 0c9 0 16-7 16-16z m-420-166l0 126 155 0c4-15 18-26 34-26l16 0c16 0 30 11 34 26l155 0 0-126z m-26 359c0 9 7 16 16 16l96 0c0-1 0-2 0-3l0-223-96 0c-9 0-16 7-16 17z m223 87c28 0 50-21 53-47l-106 0c3 26 25 47 53 47z m20-306l0-5c0-6-5-12-12-12l-16 0c-7 0-12 6-12 12l0 5c0 6 5 12 12 12l16 0c7 0 12-6 12-12z m68 9l-46 0c-4 15-18 26-34 26l-16 0c-16 0-30-11-34-26l-46 0 0 223c0 1 0 2 0 3l176 0c0-1 0-2 0-3z m119 250l-131 0c-2 39-35 70-76 70-41 0-74-31-76-70l-131 0c-22 0-40-18-40-40l0-193c0-18 11-32 26-38l0-130c0-12 10-22 22-22l398 0c12 0 22 10 22 22l0 130c15 6 26 20 26 38l0 193c0 22-18 40-40 40z"/>
<glyph glyph-name="info-icon" unicode="&#116;" d="M256 17c-134 0-242 110-242 242 0 135 110 243 242 243 135 0 243-111 243-243 2-132-108-242-243-242z m0 434c-102 0-188-87-188-189 0-102 86-189 188-189 105 0 189 87 189 189 0 102-84 189-189 189z m-2-159l8 0c16 0 27-11 27-27l0-100c0-16-11-27-27-27l-8 0c-17 0-27 11-27 27l0 100c0 16 10 27 27 27z m0 94l8 0c16 0 27-11 27-27l0-8c0-16-11-27-27-27l-8 0c-17 0-27 11-27 27l0 8c0 14 10 27 27 27z"/>
<glyph glyph-name="change" unicode="&#80;" d="M160 453c-10 10-10 26 0 36 10 9 27 9 37 0l77-76c10-10 10-26 0-36l-77-76c-10-10-27-10-37 0-10 10-10 26 0 36l33 33-26 0c-64 0-116-51-116-114 0-59 54-114 103-114 14 0 25-11 25-25 0-14-11-25-25-25-78 0-154 78-154 164 0 91 75 164 167 164l26 0z m191-394c10-10 10-26 0-36-10-9-27-9-37 0l-77 76c-10 10-10 26 0 36l77 76c10 10 27 10 37 0 10-10 10-26 0-36l-33-33 27 0c64 0 116 51 116 114 0 59-54 114-103 114-14 0-25 11-25 25 0 14 11 25 25 25 78 0 154-78 154-164 0-91-75-164-167-164l-27 0z"/>
<glyph glyph-name="close" unicode="&#108;" d="M271 268l63 62c5 5 5 12 0 16-5 4-12 4-15 0l-63-63-63 63c-4 4-11 4-15 0-5-5-5-12 0-16l63-62-63-63c-5-5-5-12 0-15 2-3 5-4 8-4 3 0 6 1 8 4l63 63 63-63c2-3 5-4 8-4 2 0 6 1 8 4 5 4 5 11 0 15z m55-84c-4 0-7 1-9 5l-61 59-61-61c-5-5-13-5-19 0-3 3-5 6-5 10 0 3 1 7 5 9l60 60-60 61c-6 6-6 14 0 20 6 6 14 6 19 0l61-61 61 61c5 6 13 6 19 0 6-6 6-14 0-20l-60-59 60-61c6-6 6-14 0-20-2-2-6-3-10-3z m-70 72l65-65c4-4 8-4 12 0 3 3 3 8 0 11l-65 66 65 65c3 3 3 8 0 11-4 4-8 4-12 0l-65-65-65 65c-4 4-8 4-12 0-3-3-3-8 0-11l65-65-65-66c-1-1-2-3-2-5 0-3 1-5 2-6 4-4 8-4 12 0z m0-256c-141 0-256 115-256 256 0 141 115 256 256 256 141 0 256-115 256-256 0-141-115-256-256-256z m0 489c-128 0-233-105-233-233 0-128 105-233 233-233 128 0 233 105 233 233 0 128-105 233-233 233z"/>
<glyph glyph-name="check" unicode="&#107;" d="M184 79l-1 0c-10 0-19 4-26 11l-125 131c-13 14-12 36 3 49 15 13 38 12 51-2l98-103 249 250c14 14 37 15 52 1 14-13 15-35 1-49l-276-277c-7-7-16-11-26-11"/>
<glyph glyph-name="language" unicode="&#118;" d="M316 35c21 26 39 65 49 112l88 0c-28-54-77-95-137-112z m-257 112l88 0c10-47 28-86 49-112-60 17-109 58-137 112z m137 315c-21-26-39-65-49-113l-88 0c28 55 77 96 137 113z m257-113l-88 0c-10 48-28 87-49 113 60-17 109-58 137-113z m-84-24l95 0c9-24 14-50 14-77 0-26-5-52-14-76l-95 0c4 24 6 50 6 76 0 27-2 53-6 77z m-113 145c32 0 67-46 84-121l-168 0c17 75 52 121 84 121z m-222-222c0 27 5 53 14 77l94 0c-3-24-5-50-5-77 0-26 2-52 6-76l-95 0c-9 24-14 50-14 76z m133-76c-3 23-6 49-6 76 0 28 3 53 6 77l178 0c3-24 6-49 6-77 0-27-3-53-6-76z m89-145c-32 0-67 46-84 120l168 0c-17-74-52-120-84-120z m229 129c11 29 18 60 18 92 0 33-7 64-18 92-1 1-1 2-1 3-37 89-125 152-228 152-103 0-191-63-228-152 0-1 0-2-1-3-11-28-18-59-18-92 0-32 7-63 18-92 1 0 1-1 1-2 37-89 125-152 228-152 103 0 191 63 228 152 0 1 0 2 1 2z"/>
<glyph glyph-name="linkedin" unicode="&#119;" d="M0 256c0 141 115 256 256 256 141 0 256-115 256-256 0-141-115-256-256-256-141 0-256 115-256 256z m206 50l-44 0 0-131 44 0z m3 41c0 13-10 23-25 23-15 0-24-10-24-23 0-13 9-23 24-23l0 0c15 0 25 10 25 23z m155-97c0 41-22 59-51 59-23 0-33-12-39-21l0 18-44 0c1-12 0-131 0-131l44 0 0 73c0 4 0 8 1 11 3 8 11 16 23 16 16 0 22-12 22-30l0-70 44 0z"/>
<glyph glyph-name="shop" unicode="&#72;" d="M377 326c0 10-7 17-17 17l-33 0c-10 28-37 50-71 50-34 0-61-22-71-50l-33 0c-10 0-17-9-17-17l-17-189c0-10 7-18 17-18l242 0c10 0 17 9 17 18z m-121 45c20 0 37-11 46-25l-92 0c9 14 26 25 46 25z m-114-230l16 179 195 0 17-179z m114 371c141 0 256-115 256-256 0-141-115-256-256-256-141 0-256 115-256 256 0 141 115 256 256 256z m0-489c128 0 233 104 233 233 0 128-105 233-233 233-128 0-233-105-233-233 0-128 105-233 233-233z"/>
<glyph glyph-name="search-h" unicode="&#114;" d="M256 512c141 0 256-115 256-256 0-141-115-256-256-256-141 0-256 115-256 256 0 141 115 256 256 256z m0-489c128 0 233 104 233 233 0 128-105 233-233 233-128 0-233-105-233-233 0-128 105-233 233-233z m73 178l59-60c6-6 6-13 0-19-5-5-13-5-18 0l-59 61c-19-17-45-27-73-27-66 0-120 54-120 120 0 65 54 119 120 119 65 0 119-54 119-119-1-29-11-54-28-75z m-93 167c-51 0-92-41-92-92 0-51 41-93 92-93 51 0 93 42 93 93 0 51-42 92-93 92z"/>
<glyph glyph-name="search-b" unicode="&#70;" d="M47 295c0 87 71 159 159 159 87 0 159-72 159-159 0-38-14-73-36-100-2-1-4-3-6-5-3-3-6-7-8-10-28-28-67-44-109-44-88 0-159 71-159 159m438-194l-89 89c-3 2-6 5-9 7 15 29 24 62 24 98 0 113-92 205-205 205-114 0-206-92-206-205 0-114 92-206 206-206 41 0 80 12 112 33 1-2 3-4 5-6l89-88c20-21 53-21 73 0 20 20 20 53 0 73"/>
<glyph glyph-name="search-a" unicode="&#69;" d="M505 43l-107 107c-10 10-26 10-36 0-10-10-10-26 0-36l107-107c5-5 11-7 18-7 6 0 13 2 18 7 9 10 9 26 0 36m-201 165c-28-29-65-44-105-44-39 0-77 15-105 44-28 28-43 65-43 105 0 39 15 77 43 105 28 28 66 43 105 43 40 0 77-15 105-43 58-58 58-153 0-210m36 246c-37 37-87 58-141 58-53 0-103-21-141-58-37-38-58-88-58-141 0-54 21-104 58-141 38-38 88-59 141-59 54 0 104 21 141 59 78 77 78 204 0 282"/>
<glyph glyph-name="plus" unicode="&#68;" d="M280 232l193 0c11 0 23 12 23 24 0 12-12 24-23 24l-193 0 0 193c0 11-12 23-24 23-12 0-24-12-24-23l0-193-193 0c-11 0-23-12-23-24 0-8 4-12 8-16 4-4 11-8 15-8l193 0 0-193c0-7 4-11 8-15 4-4 12-8 16-8 12 0 24 12 24 23z m-24-224c-8 0-16 4-24 8-8 8-8 16-8 23l0 185-185 0c-7 0-15 4-23 8-8 8-8 16-8 24 0 16 16 32 31 32l185 0 0 185c0 15 16 31 32 31 16 0 32-16 32-31l0-185 185 0c15 0 31-16 31-32 0-16-16-32-31-32l-185 0 0-185c0-15-16-31-32-31z m-217 264c-7 0-15-8-15-16 0-4 0-8 4-12 4-4 7-4 11-4l201 0 0-201c0-4 0-7 4-11 4-4 8-4 12-4 8 0 16 8 16 15l0 201 201 0c7 0 15 8 15 16 0 8-8 16-15 16l-201 0 0 201c0 7-8 15-16 15-8 0-16-8-16-15l0-201z"/>
<glyph glyph-name="play" unicode="&#67;" d="M148 503l258-219c17-14 17-42 0-57l-258-218c-23-20-58-2-58 29l0 436c0 31 35 49 58 29"/>
<glyph glyph-name="pin" unicode="&#66;" d="M254 433c48 0 87-38 87-85 0-47-39-85-87-85-49 0-88 38-88 85 0 47 39 85 88 85m-23-402c9-18 35-18 44 0 0 0 104 198 128 244 23 46 24 99 0 147-42 81-143 113-226 73-83-41-115-143-74-220 41-77 128-244 128-244"/>
<glyph glyph-name="offers" unicode="&#65;" d="M486 293c0-5-4-9-9-9l-156 0 0 94 69 0c2 0 4 0 6 0l81 0c5 0 9-4 9-10z m-69-269l-98 0 0 234 136 0 0-197c2-20-16-37-38-37z m-362 39l0 197 136 0 0-234-98 0c-20-2-38 15-38 37z m-29 230l0 75c0 6 4 10 9 10l81 0c2 0 4 0 6 0l69 0 0-94-156 0c-5 0-9 4-9 9z m69 128c-8 18-4 42 9 54 8 5 16 11 28 13 4 0 8 0 10 0 35 0 67-27 84-57 4-8 8-17 12-27l-120 0c-14 2-22 10-23 17z m122-137l0 94 78 0 0-94z m-2-260l0 234 78 0 0-234z m165 462c12-2 20-6 28-13 13-12 17-36 9-54-3-7-9-15-23-17l-120 0c4 10 8 17 12 27 17 34 57 63 94 57z m97-82l-40 0c2 2 4 6 4 8 12 25 4 61-16 80-9 10-25 18-41 20-53 8-100-30-122-69-2-6-6-10-8-16-2 6-4 12-8 16-22 39-69 79-122 69-16-2-29-10-41-20-20-19-28-53-16-80 2-4 4-6 6-8l-40 0c-19 0-35-16-35-34l0-75c0-17 14-31 30-33l0-197c0-35 29-63 63-63l325 0c35 0 63 28 63 63l0 197c17 2 29 18 29 33l0 75c4 18-12 34-31 34z"/>
<glyph glyph-name="more" unicode="&#122;" d="M51 205c-28 0-51 23-51 51 0 28 23 51 51 51 28 0 51-23 51-51 0-28-23-51-51-51z m205 0c-28 0-51 23-51 51 0 28 23 51 51 51 28 0 51-23 51-51 0-28-23-51-51-51z m205 0c-28 0-51 23-51 51 0 28 23 51 51 51 28 0 51-23 51-51 0-28-23-51-51-51z"/>
<glyph glyph-name="mobile-life" unicode="&#121;" d="M512 256c0-142-114-256-256-256-142 0-256 114-256 256 0 142 114 256 256 256 142 0 256-114 256-256z m-83-152c36 42 57 95 57 152 0 20-2 37-7 57-4-2-6-2-10-4-6-2-14-4-18-8-6-2-8-8-14-13-4-6-10-12-16-18-7-6-17-8-25-10-4 0-8-2-12-2-6-2-12-10-14-18-2-6-2-10 0-14 2-5 8-9 12-11 2-2 6-2 8-4 14-8 37-18 37-46 0-9-4-17-6-25-4-8-5-12-5-18-2-6 1-10 13-18m-250-65c24-7 49-13 77-13 59 0 114 23 154 59-12 8-26 19-22 43 2 8 4 16 8 22 4 8 6 11 6 17 0 10-8 14-22 22-4 2-6 4-10 6-12 6-19 16-23 26-4 7-4 17 0 27 4 18 15 32 29 36 6 2 12 4 16 4 6 0 12 1 16 3 4 2 8 8 9 12 6 8 12 16 22 22 8 4 16 6 24 10 2 0 6 0 8 2-8 21-18 39-32 57-6-8-16-12-23-14-6-2-12-6-14-8-4-4-6-10-10-16-2-5-6-11-8-17-6-10-14-16-24-18-2 0-4 0-6 0-5 0-9 2-13 4-12 8-16 26-18 37 0 4-2 10-2 12-2 2-4 4-10 8-6 4-16 8-20 18-3 10-3 21 0 31 4 8 10 14 14 18 4 4 6 6 8 8 4 6 6 12 8 20-22 5-43 9-67 9-51 0-96-15-136-45 14-6 32-18 26-43 0-10 0-12 19-18 16-4 30-18 34-33 4-18 0-38-16-52-4-6-10-9-16-13-7-8-15-14-21-24-12-28 2-45 27-71 20-20 42-41 42-71 6-29-12-55-34-77m-153 217c0-91 53-169 130-207 19 20 37 44 37 65-2 22-18 38-35 55-24 24-54 54-34 99 6 16 18 23 28 33 4 4 8 8 13 12 8 8 12 18 8 28-2 8-10 13-17 15-14 4-42 12-34 50 0 6 0 8-16 15-4 0-6 2-8 2-45-41-72-100-72-167m395 160c-21 21-47 39-74 51-2-8-6-18-12-24-4-6-8-10-12-14-4-4-8-6-10-10-2-2-2-5 0-9 2-2 4-4 8-6 8-4 18-8 22-20 2-4 2-10 4-16 2-6 4-19 5-21 2 0 4 4 8 5 2 4 4 8 6 14 4 8 6 16 14 24 6 8 16 12 24 16 15 4 17 6 17 10m-145-264c23 11 29 41 23 65-2 9-8 19-11 31-6 14-14 28-18 45-2 8-8 12-14 12-2 0-6 0-8-2-6-2-10-10-10-15 2-6 8-14 14-22 6-8 12-16 18-26 2-4 4-10 6-16 6-17-2-35-6-49-2-8-6-17-6-21 0-2 0-2 0-2 0 0 2 0 4 0 2-2 4 0 8 0z m17 147c6-25 22-49 30-75 10-35-2-76-37-94-6-4-14-4-20-4-14 0-26 8-30 24-4 23 18 49 12 71 0 3-2 5-4 9-10 20-29 32-33 54-4 17 6 37 23 45 6 2 12 4 20 4 20-2 35-14 39-34z"/>
<glyph glyph-name="login" unicode="&#120;" d="M176 300c0 44 36 80 80 80 44 0 80-36 80-80 0-44-36-80-80-80-44 0-80 36-80 80m235-217c-4-3-7-7-11-10-3-1-5-3-8-5-3-2-6-5-9-7-4-2-7-4-11-6-2-2-5-3-7-5-5-2-9-4-14-6-2-1-4-2-6-3-5-2-10-4-16-6-1 0-3-1-5-2-6-1-11-3-16-4-2 0-4-1-6-1-6-1-11-2-17-3-2 0-4 0-6-1-7 0-15-1-22-1-1 0-1 0-1 0 0 0 0 0-1 0-7 0-15 1-22 1-2 1-4 1-6 1-6 1-11 2-17 3-2 0-4 1-6 1-5 1-10 3-16 4-2 1-4 2-5 2-6 2-11 4-16 6-2 1-4 2-6 3-5 2-9 4-14 6-2 2-5 3-7 5-4 2-7 4-11 6-3 2-6 5-9 7-3 2-5 4-8 5-4 3-7 7-11 10-1 1-2 2-3 3 28 66 90 109 158 109 68 0 130-43 158-109-1-1-2-2-3-3m-388 173c0 128 105 233 233 233 128 0 233-105 233-233 0-58-22-111-57-152-26 52-71 91-125 107 31 18 52 51 52 89 0 57-46 104-103 104-57 0-103-47-103-104 0-38 21-71 52-89-54-16-99-55-125-107-35 41-57 94-57 152m419-176c43 46 70 108 70 176 0 141-115 256-256 256-141 0-256-115-256-256 0-68 27-130 70-176 18-18 38-34 60-47 0 0 0 0 1 0 6-4 13-7 21-11 0 0 1 0 2-1 6-3 13-5 20-7 1-1 3-1 4-2 7-2 13-4 20-5 2-1 3-1 5-2 7-1 14-2 21-3 2 0 3 0 5-1 9-1 18-1 27-1 9 0 18 0 27 1 2 1 3 1 5 1 7 1 14 2 21 3 2 1 3 1 5 2 7 1 13 3 20 5 1 1 2 1 4 2 7 2 14 4 20 7 1 1 2 1 2 1 8 4 15 7 21 11 1 0 1 0 1 0 22 13 42 29 60 47 0 0 0 0 0 0"/>
<glyph glyph-name="lock" unicode="&#84;" d="M204 166c0 29 23 52 52 52 29 0 52-23 52-52 0-19-10-35-26-44l0-20c0-14-12-25-26-25-14 0-26 11-26 25l0 20c-16 9-26 25-26 44z m-104 192c0 85 70 154 156 154 86 0 156-69 156-154l0-64c29 0 52-22 52-51l0-192c0-28-23-51-52-51l-312 0c-29 0-52 23-52 51l0 192c0 28 23 51 52 51z m52-64l208 0 0 64c0 57-47 103-104 103-57 0-104-46-104-103z m-52-51l0-192 312 0 0 192z"/>
<glyph glyph-name="show" unicode="&#73;" d="M257 115c-100 0-190 51-243 133l-5 8 5 8c53 84 143 133 243 133 100 0 189-51 243-133l3-8-6-8c-51-82-143-133-240-133z m-218 141c49-72 131-115 218-115 87 0 169 43 217 115-48 72-130 115-217 115-87 0-169-43-218-115z m218 84c-5 0-13-2-21-2 5-5 8-13 8-21 0-25-20-46-46-46-10 0-18 3-23 5-3-5-5-12-5-20 0-46 38-84 84-84 46 0 85 38 85 84 0 46-36 84-82 84z"/>
<glyph glyph-name="sim" unicode="&#74;" d="M402 0l-298 0c-22 0-40 18-40 38l0 366c0 9 4 18 9 26l59 68c8 9 19 14 31 14l239 0c22 0 40-18 40-38l0-436c0-20-18-38-40-38z m-239 486c-6 0-9-1-12-5l-58-68c-2-2-3-5-3-9l0-366c0-7 6-12 14-14l298 0c8 0 14 7 14 14l0 434c0 8-6 14-14 14z m85-172l119 0c14 0 21-7 21-21l0-220c0-14-7-21-21-21l-238 0c-14 0-20 7-20 21l0 221c-1 6 1 11 5 14 4 4 9 6 14 6z m119-158l0 60-157 0c-9 0-13 3-13 13 0 7 0 13 0 19l0 48-68 0 0-139 238 0z m-238-82l72 0 0 60-72 0z m169 0l68 0 0 60-68 0z m-1 220l0-57 70 0 0 57z m-74-220l55 0 0 60-55 0z m53 219l-57 0 0-57 57 0z"/>
<glyph glyph-name="solutions" unicode="&#75;" d="M434 26c-64 9-114 26-153 46 6 3 11 6 14 8 22 15 42 34 59 57 3 4 6 7 8 10 0 0 0 0 0 1 0 0 0 0 0 0 3 4 5 7 5 8 0 0 0 0 0 0 9 16 15 31 16 46 2 22-3 41-13 58-15 25-44 38-72 32-16-3-31-11-42-23-7 7-14 12-23 17-27 13-58 9-80-12-16-16-24-37-24-63 0-20 5-39 16-55 0 0 0 0 0 0 0 0 0-1 0-1l0 0c3-5 27-45 86-83-39-20-89-37-153-46l0 278 179 183 177-182z m-268 142c0 0 0 0 0 0 0 0 0 0 0 0-8 13-13 28-13 43 0 19 6 34 17 46 14 13 34 16 52 7 9-5 16-11 22-18l2-3c1-1 2-2 3-3 1-1 3-1 4-1 5-2 9 0 12 3l3 3c1 2 3 4 5 6 8 9 18 15 30 17 18 4 37-4 46-21 8-12 11-26 10-43-2-14-7-27-16-42-1-1-3-3-4-4 0-1-1-1-1-2-11-14-34-40-73-65-4-2-8-3-11-4-64 39-88 80-88 81z m343 95l-235 241c-5 5-11 8-18 8l0 0c-7 0-13-3-18-8l-235-241c-4-5-4-12 1-17 2-2 5-3 8-3 3 0 7 1 9 3l32 33 0-267c0-3 2-7 5-9 2-2 5-3 8-3 0 0 1 0 1 0 82 10 144 32 189 57 45-25 107-47 189-57 0 0 1 0 1 0 3 0 6 1 8 3 3 2 5 6 5 9l0 268 32-34c5-5 12-5 17 0 5 5 5 12 1 17z"/>
<glyph glyph-name="support" unicode="&#76;" d="M413 98c-9-9-19-17-29-24l-43 69c-1 2-2 3-3 4 5 3 10 7 14 12 5 4 8 9 12 14 1-1 2-3 4-3l69-43c-7-10-15-20-24-29m-264-37l43 69c0 2 1 3 1 5 20-11 41-16 63-16 22 0 43 5 63 16 0-2 1-3 1-5l43-69c-32-18-69-28-107-28-38 0-75 10-107 28m-74 66l69 43c2 0 3 2 4 3 4-5 7-10 12-14 4-5 9-9 14-12-1-1-2-2-3-4l-43-69c-10 7-20 15-29 24-9 9-17 19-24 29m-13 235l69-43c2-1 3-1 5-1-21-39-21-86 0-126-2 0-3-1-5-2l-69-42c-18 32-28 69-28 107 0 38 10 75 28 107m37 50c9 9 19 17 29 24l43-69c1-2 2-3 3-4-5-4-10-7-14-12-5-4-8-9-12-14-1 1-2 2-4 3l-69 43c7 10 15 20 24 29m264 37l-43-69c0-2-1-3-1-5-20 10-41 16-63 16-22 0-43-6-63-16 0 2-1 3-1 5l-43 69c32 18 69 28 107 28 38 0 75-10 107-28m74-66l-69-43c-2-1-3-2-4-3-4 5-7 10-12 14-4 5-9 8-14 12 1 1 2 2 3 4l43 69c10-7 20-15 29-24 9-9 17-19 24-29m-181-240c-30 0-58 12-79 33-21 21-33 49-33 79 0 30 12 58 33 79 21 21 49 33 79 33 30 0 58-12 79-33 21-21 33-49 33-79 0-30-12-58-33-79-21-21-49-33-79-33m194 5l-69 42c-2 1-3 2-5 2 21 40 21 87 0 126 2 0 3 0 5 1l69 43c18-32 28-69 28-107 0-38-10-75-28-107m-20 281c-48 48-111 72-174 72-63 0-126-24-174-72-97-96-97-252 0-348 48-49 111-73 174-73 63 0 126 24 174 73 97 96 97 252 0 348"/>
<glyph glyph-name="timer" unicode="&#77;" d="M468 258c-10 88-73 161-158 183l0 25c0 17-13 26-30 26l-48 0c-17 0-30-12-30-29l0-24c-109-25-180-137-156-249 20-102 110-173 210-173 12 0 24 0 37 3 112 19 190 124 175 238z m-46-48c-3-30-12-56-32-81-2 3-5 5-10 5-5 0-7-2-9-5l-13-12c-2-2-4-7-4-10 0-5 2-7 4-9-24-20-51-30-80-35l0 3c0 7-7 14-15 14l-14 0c-8 0-15-7-15-14l0-3c-29 5-56 15-78 35 2 2 5 7 5 9 0 5-3 8-5 10l-10 10c-2 2-7 5-12 5-5 0-7-3-10-5-17 24-29 51-31 80l2 0c7 0 15 8 15 15l0 17c0 7-8 15-15 15l-7 0c5 31 14 58 34 82 2-2 5-4 10-4 5 0 7 0 12 4l12 13c2 2 5 7 5 12 0 5-3 7-5 10 24 19 51 29 80 34l0-3c0-7 8-14 15-14l17 0c8 0 15 7 15 14 29-5 56-14 78-34-3-2-5-7-5-10 0-4 2-7 5-9l12-13c2-2 7-4 12-4 5 0 8 2 10 4 19-24 29-51 34-80l-2 0c-8 0-15-7-15-15l0-17c-5-7 2-14 10-14z m24 195c0-5-2-10-7-15l-3 0c-2-2-7-5-12-5-5 0-10 0-12 3l-22 22c-5 4-5 9-5 14 0 5 3 10 5 15l0 2c7 8 20 8 27 0l22-22c5-5 7-9 7-14z m-322 7l-22-22c-4-5-9-7-14-7-5 0-10 2-15 5-5 5-7 9-7 14 0 8 2 12 7 15l25 22c7 7 19 7 26 0 8-5 8-17 0-27z m152-163c0-20-15-34-35-37-2 0-2 0-5 0-19 0-34 12-36 32 0 2 0 2-3 2-19 10-39 20-60 30l-13 7c-5 2-7 5-9 10-3 4 0 7 2 12l2 5c3 2 3 5 5 7 3 5 5 5 8 7 5 3 9 0 9-2 13-7 27-15 39-20l39-19 5-7-5 7c13 5 27 5 37-3 12-4 20-17 20-31z"/>
<glyph glyph-name="twitter" unicode="&#78;" d="M0 256c0 141 115 256 256 256 141 0 256-115 256-256 0-141-115-256-256-256-141 0-256 115-256 256z m248 48l1-9-9 1c-33 4-61 18-85 42l-12 12-3-9c-7-19-3-40 11-53 7-8 5-9-7-5-4 2-8 3-8 2-2-1 3-17 6-24 5-9 14-18 25-23l8-4-10 0c-10 0-10 0-9-4 3-12 17-24 33-30l11-4-9-5c-15-9-31-13-48-14-8 0-15-1-15-1 0-2 22-12 35-16 38-12 83-7 117 13 24 14 48 43 60 70 6 15 12 42 12 55 0 8 0 9 10 19 6 6 12 12 13 14 2 3 2 3-8 0-15-5-17-4-9 4 5 5 12 16 12 19 0 1-3 0-6-2-3-2-10-5-16-6l-9-3-9 6c-5 3-12 7-15 8-10 2-24 2-32-1-22-8-36-29-35-52z"/>
<glyph glyph-name="youtube" unicode="&#79;" d="M0 256c0 141 113 256 252 256 139 0 252-115 252-256 0-141-113-256-252-256-139 0-252 115-252 256z m383 52c0 0-2 19-10 27-10 11-22 11-27 12-38 3-94 3-94 3l0 0c0 0-57 0-94-3-5-1-17-1-27-12-8-8-11-27-11-27 0 0-2-23-2-46l0-21c0-22 2-45 2-45 0 0 3-19 11-28 10-11 24-10 29-12 22-2 92-2 92-2 0 0 56 0 94 3 5 0 17 0 27 11 8 9 10 28 10 28 0 0 3 23 3 45l0 21c0 23-3 46-3 46z m-159-92l0 78 73-39z"/>
<glyph glyph-name="arrow-up" unicode="&#104;" d="M263 389c10 0 20-3 31-14l184-184c17-17 17-44 0-61-17-17-45-17-62 0l-153 153-154-153c-17-17-44-17-61 0-17 17-17 44 0 61l184 184c7 11 21 14 31 14m27-7l184-184c21-21 21-51 0-72-6-7-20-13-34-13-13 0-24 3-34 13l-147 150-146-150c-11-7-21-13-34-13-14 0-24 3-35 13-20 21-20 51 0 72l185 184c10 7 20 14 34 14 13 0 24-7 27-14z m-184-249l157 157 157-157c7-7 17-10 27-10 10 0 21 3 27 10 14 14 14 41 0 55l-184 184c-14 14-41 14-54 0l-185-184c-13-14-13-38 0-55 7-7 17-10 28-10 10 0 20 3 27 10z"/>
<glyph glyph-name="hide" unicode="&#71;" d="M101 160c-69 40-101 96-101 96 0 0 79 138 256 138 26 0 49-3 71-8l-17-17c-17 3-35 5-54 5-158 0-232-118-232-118 0 0 29-47 91-82z m84-34c22-5 45-8 71-8 177 0 256 138 256 138 0 0-32 56-101 96l-14-14c62-35 91-82 91-82 0 0-74-118-232-118-19 0-37 2-54 5z m148 148c1-6 2-12 2-18 0-44-35-79-79-79-6 0-12 1-18 2l18 18c15 0 30 6 42 17 11 12 17 27 17 42z m-59 59c-6 1-12 2-18 2-44 0-79-35-79-79 0-6 1-12 2-18l18 18c0 15 6 30 17 42 12 11 27 17 42 17z m140 100l-335-335 19-19 335 335z"/>
<glyph glyph-name="info-a" unicode="&#85;" d="M209 512l94 0 0-93-94 0z m0-140l94 0 0-279 93 0 0-93-280 0 0 93 93 0 0 186-93 0 0 93z"/>
<glyph glyph-name="arrow-down" unicode="&#99;" d="M263 119c-10 0-24 4-31 14l-184 184c-17 18-17 45 0 62 17 17 44 17 61 0l154-154 153 154c17 17 45 17 62 0 17-17 17-44 0-62l-184-184c-11-10-21-14-31-14m0-6c-14 0-24 6-34 13l-185 185c-20 20-20 51 0 71 11 11 21 14 35 14 13 0 23-7 34-14l146-150 147 150c10 11 21 14 34 14 14 0 28-7 34-14 21-20 21-51 0-71l-184-185c-3-7-14-13-27-13z m-184 273c-11 0-21-4-28-11-13-17-13-40 0-54l185-184c13-14 40-14 54 0l184 184c14 14 14 41 0 54-6 7-17 11-27 11-10 0-20-4-27-11l-157-157-157 157c-7 7-17 11-27 11z"/>
<glyph glyph-name="protect" unicode="&#83;" d="M91 64c-9-9-23-9-32 0-10 8-10 23 0 32l32 32c-6 4-13 9-19 15-43 36-72 81-72 113 0 32 29 77 72 113 50 43 114 68 184 68 44 0 86-10 124-28l41 39c9 9 23 9 32 0 10-8 10-23 0-32l-32-31c7-5 13-10 19-16 43-35 72-81 72-113 0-32-29-78-72-113-50-43-114-68-184-68-44 0-86 10-124 28z m165 56c58 0 111 21 154 57 33 28 55 63 55 79 0 16-22 51-55 79-7 6-15 12-23 17l-68-67c4-9 7-18 7-29 0-38-31-68-70-68-11 0-21 2-30 7l-59-58c28-11 58-17 89-17z m-63 107c-4 9-7 18-7 29 0 38 31 68 70 68 11 0 21-2 30-7l59 58c-28 11-58 17-89 17-58 0-112-21-154-57-33-28-55-63-55-79 0-16 22-51 55-79 7-6 15-12 23-17z"/>
<glyph glyph-name="smart-phone" unicode="&#87;" d="M412 469c0 22-18 40-40 40l-234 0c-22 0-40-18-40-40l0-426c0-22 18-40 40-40l236 0c22 0 40 18 38 42z m-274 10l234 0c6 0 10-4 10-10l0-341-254 0 0 341c0 6 4 10 10 10z m234-446l-234 0c-6 0-10 4-10 12l0 53 254 0 0-55c0-6-4-10-10-10z m-165 398l96 0c9 0 15 6 15 16 0 10-8 16-15 16l-96 0c-9 0-15-6-15-16 0-10 8-16 15-16z m50-340c-14 0-24-10-24-24 0-16 10-26 26-24 12 0 22 12 22 24 0 14-10 24-24 24z m-24-24c-2-2 0-2 0 0z"/>
<glyph glyph-name="star-icon" unicode="&#88;" d="M256 110l-118-62c-9-5-20-1-24 8-2 3-3 7-2 11l22 131-95 93c-7 7-7 19 0 26 3 3 6 5 10 5l132 19 59 119c4 10 15 13 24 9 4-2 7-5 8-9l59-119 132-19c10-1 17-11 15-21 0-4-2-7-5-10l-95-93 22-131c2-10-5-19-15-21-4-1-8 0-11 2z"/>
<glyph glyph-name="visible2" unicode="&#89;" d="M242 87c-8 0-17 1-25 2-54 6-108 29-151 65-33 29-72 72-65 115 9 58 77 105 97 118 48 31 105 47 159 44 59-3 119-28 165-68 32-27 69-69 64-111 0-2 0-3 0-5-32-103-146-160-244-160z m2 301c-42 0-85-13-122-37-36-23-74-59-79-88-2-18 17-47 51-76 36-31 82-50 128-55 85-9 194 39 222 126 0 18-18 45-50 72-39 34-90 55-139 58-4 0-8 0-11 0z m-65-129c0 36 29 65 65 65 36 0 65-29 65-65 0-36-29-65-65-65-36 0-65 29-65 65"/>
<glyph glyph-name="du-info-icon-lite" unicode="&#112;" d="M256 5c-139 0-251 112-251 251 0 139 112 251 251 251 139 0 251-112 251-251 0-139-112-251-251-251z m0 23c126 0 228 102 228 228 0 126-102 228-228 228-126 0-228-102-228-228 0-126 102-228 228-228z m65 145l-41 0 0 123c0 9-8 17-17 17l-72 0c-3 0-6-3-6-6l0-35c0-3 3-6 6-6l42 0 0-93-42 0c-3 0-6-2-6-5l0-36c0-3 3-5 6-5l130 0c3 0 6 2 6 5l0 36c0 3-3 5-6 5z m-65 212c-8 0-16-4-20-11-4-8-4-17 0-24 4-7 12-12 20-12 9 0 17 5 21 12 4 7 4 16 0 24-4 7-12 11-21 11z"/>
<glyph glyph-name="icon-pencil" unicode="&#90;" d="M484 383l-98 100c-8 8-22 8-30 0l-59-60-237-238c-2-2-4-5-5-7l-33-129c-1-6 0-13 4-18 4-5 11-8 17-8l5 0 130 28c3 1 5 2 8 4l237 237 61 61c8 8 8 22 0 30z m-412-311l14 57 22-22 23-23z m101 28l-34 35-34 35 207 207 68-69z m237 237l-68 71 28 28 70-67z"/>
<glyph glyph-name="alert" unicode="&#86;" d="M226 127c0 23 19 41 41 41 23 0 41-18 41-41l0-14c0-23-18-41-41-41-22 0-41 18-41 41z m0 249c0 23 19 41 41 41 23 0 41-18 41-41l0-121c0-23-18-41-41-41-22 0-41 18-41 41z m41-376c135 0 245 110 245 245 0 134-110 244-245 244-134 0-244-110-244-244 0-135 110-245 244-245z"/>
<glyph glyph-name="email" unicode="&#48;" d="M458 427l-404 0c-30 0-54-25-54-55l0-232c0-30 24-55 54-55l404 0c30 0 54 25 54 55l0 232c0 30-24 55-54 55z m-404-26l404 0c16 0 28-13 28-29l0-4-219-128-241 128 0 4c0 16 12 29 28 29z m404-290l-404 0c-16 0-28 13-28 29l0 199 235-125c4-3 9-3 12 0l213 124 0-198c0-16-12-29-28-29z"/>
<glyph glyph-name="link-arrow" unicode="&#49;" d="M500 239c7 17 3 36-10 50l-183 182c-12 12-28 16-44 12-16-4-28-16-33-32-4-16 1-33 12-44l105-105-292 0c-26 0-46-21-46-46 0-25 20-46 46-46l292 0-105-105c-11-11-16-28-12-44 5-16 17-28 33-32 16-4 32 0 44 12l183 182c4 5 7 10 10 16z"/>
<glyph glyph-name="info-icon-filled" unicode="&#117;" d="M256 507c139 0 251-112 251-251 0-139-112-251-251-251-139 0-251 112-251 251 0 139 112 251 251 251z m-27-83l0-56 56 0 0 56z m56-253l0 168-112 0 0-56 56 0 0-112-56 0 0-56 168 0 0 56z"/>
<glyph glyph-name="arrow-left" unicode="&#100;" d="M395 251c0-11-3-21-14-32l-190-190c-18-18-46-18-64 0-17 17-17 45 0 63l159 159-159 158c-17 18-17 46 0 64 18 17 46 17 64 0l190-191c11-3 14-21 14-31m-7-25l-190-190c-21-21-53-21-74 0-7 7-14 21-14 35 0 14 3 25 14 35l155 152-155 151c-7 11-14 21-14 36 0 14 3 24 14 35 21 21 53 21 74 0l190-191c7-10 14-21 14-35 0-14-7-28-14-28z m-257 190l162-162-162-162c-7-7-11-18-11-28 0-11 4-21 11-28 14-14 42-14 56 0l191 190c14 14 14 42 0 56l-191 191c-14 14-39 14-56 0-7-7-11-18-11-28 0-15 4-25 11-29z"/>
<glyph glyph-name="arrow-down-filled-circled" unicode="&#50;" d="M512 256c0 141-115 256-256 256-141 0-256-115-256-256 0-141 115-256 256-256 68 0 133 27 181 75 48 48 75 113 75 181z m-276-105l-85 85c-8 9-8 22 0 31 8 8 22 8 30 0l49-49 0 136c0 12 10 21 22 21 11 0 21-9 21-21l0-136 49 49c8 8 22 8 30 0 8-9 8-22 0-31l-85-85c-6-6-16-8-24-5-2 1-5 3-7 5z"/>
<glyph glyph-name="arrow-up-filled-circled" unicode="&#51;" d="M512 256c0-141-115-256-256-256-141 0-256 115-256 256 0 141 115 256 256 256 68 0 133-27 181-75 48-48 75-113 75-181z m-276 105l-85-85c-8-9-8-22 0-31 8-8 22-8 30 0l49 49 0-136c0-12 10-21 22-21 11 0 21 9 21 21l0 136 49-49c8-8 22-8 30 0 8 9 8 22 0 31l-85 85c-6 6-16 8-24 5-2-1-5-3-7-5z"/>
<glyph glyph-name="benefits" unicode="&#52;" d="M432 434l-2 2c-23 21-50 38-79 49-30 12-63 17-95 17-64 1-126-23-172-66l-2-2c-46-40-72-99-72-160-1-61 26-120 72-161 20-19 44-34 69-46-8-14-5-32 7-43 10-9 23-14 36-14l10 0c48 5 95 20 138 43 20 10 39 22 57 34 6 4 10 8 14 10l18 16c29 26 50 58 62 95 6 22 10 44 9 66 1 61-25 119-70 160z m36-219c-11-33-30-62-55-85l-18-15c-3-2-7-5-12-8-17-13-35-24-53-34-40-20-84-34-129-39l-6 0c-7 0-15 3-21 8-2 3-3 10 2 21l3 7c2 6-1 12-6 14-27 10-52 25-73 45-41 37-65 89-65 145 0 55 24 108 65 144 42 40 98 61 156 60 30 0 59-6 87-16 26-11 49-25 69-44l2-2c40-36 64-87 64-142-1-20-4-40-10-59z m-172 138c-15-2-29-9-40-19-6 5-14 10-21 14-26 12-56 8-77-10-17-14-26-34-25-56 0-17 5-35 16-49 13-19 28-35 46-49 11-9 24-17 37-22 8-3 16-5 24-4l5 0c12 1 23 5 33 11 25 15 47 35 64 58 12 14 19 30 21 48 2 17-2 35-12 50-16 23-44 34-71 28z m57-76c-2-13-7-26-16-36-15-21-34-38-56-52-7-4-14-7-22-8-5 0-11 1-15 3-11 5-22 11-31 19-16 12-30 27-42 44-7 10-11 23-11 36-1 14 4 28 15 38 8 6 18 9 28 9 7 0 14-2 20-5 8-3 15-8 21-15l2-2 2-2 5-1c4-1 9 1 13 4l2 2 5 5c8 7 17 12 28 14 16 3 33-4 43-18 7-10 10-23 9-35z"/>
<glyph glyph-name="faqs" unicode="&#53;" d="M256 502c-136 0-246-110-246-246 0-136 110-246 246-246 136 0 246 110 246 246 0 136-110 246-246 246z m0-469c-90 0-172 55-206 138-34 83-15 179 49 243 64 64 160 82 243 47 83-34 137-116 137-206-1-123-101-222-223-222z m14 157c-3 2-6 5-10 6-8 4-17 4-25 0-3-1-7-4-10-6-2-3-5-6-6-10-2-3-2-7-2-11 0-4 0-8 2-11 1-4 3-7 6-10 3-3 6-6 10-7 4-2 8-3 13-3 4 0 8 1 11 2 4 2 7 4 10 6 3 3 6 6 7 10 2 4 3 8 3 12 0 4-1 8-2 11-2 4-4 8-7 11z m64 127c-2 7-4 15-8 22-4 7-9 13-16 18-7 5-16 9-24 12-11 3-22 4-33 4-14 1-28-1-41-5-8-2-16-6-22-11-5-4-8-9-10-14-1-4-2-7-2-11 0-7 2-13 7-18 5-5 11-8 18-10 4 7 10 12 16 17 9 5 19 8 29 7 8 1 17-2 24-7 5-5 8-11 8-18 0-6-3-13-8-17-5-5-11-10-17-13-6-4-12-8-16-11-4-3-8-6-11-10-3-4-5-8-6-12-1-5-2-11-2-17l0-7 52 0c0 6 4 12 9 15 2 2 7 5 12 9 7 4 13 9 18 14 6 6 12 13 16 21 5 11 7 22 7 33l0 4c0 0 0 3 0 5z"/>
<glyph glyph-name="solutions-2" unicode="&#54;" d="M300 55l-88 0c-2 0-5-1-7-3-2-2-3-4-3-7 0-12 5-23 13-32 9-8 20-13 32-13l18 0c12 0 24 5 32 13 9 9 13 20 13 32 0 3-1 5-3 7-2 2-5 3-7 3z m-35-34l-18 0c-9 1-17 6-21 15l62 0c-4-10-13-15-23-15z m-9 377c-66 0-120-53-121-119 1-31 9-61 26-87 14-20 21-44 21-69 0-12 10-21 22-21l106 0c12 0 22 9 22 21 0 25 7 49 21 69 16 26 25 56 25 87 0 32-13 63-36 85-23 22-54 35-86 34z m77-196c-15-24-23-51-24-79l-107 0c0 28-8 55-23 79-15 23-23 49-23 77 2 53 46 95 100 95 53 0 98-42 100-95 0-28-8-54-23-77z m-23-115l-107 0c-6 0-10-5-10-10 0-6 4-10 10-10l107 0c5 0 10 4 10 10 0 3-1 5-3 7-2 2-5 3-7 3z m179 179l-58 0c-6 0-11-5-11-10 1-6 5-10 11-10l58 0c3 0 5 1 7 3 2 2 3 4 3 7 0 3-1 5-3 7-2 2-4 3-7 3z m-51 166c-2 2-5 3-8 3-2 0-5-1-7-3l-41-41c-4-4-4-10 0-14 2-2 4-3 7-3 3 0 6 1 8 3l41 41c2 2 3 5 3 7 0 3-1 6-3 7z m-182 1c5 0 10 5 10 11l0 58c1 4-1 8-5 10-3 2-7 2-11 0-3-2-5-6-4-10l0-58c0-6 4-10 10-11z m-175-167l-58 0c-3 0-5-1-7-3-2-2-3-4-3-7 0-6 4-10 10-10l58 0c6 0 10 4 11 10-1 6-5 10-11 10z m8 166c-4 4-11 4-15 0-4-4-4-10 0-14l42-41c2-2 4-3 7-3 3 0 5 1 7 3 4 4 4 10 0 14z"/>
<glyph glyph-name="terms" unicode="&#55;" d="M441 410c0 0 0 0 0 1-1 2-2 4-3 6l-82 82c-1 1-3 2-5 3l-233 0c-26 0-47-21-47-47l0-398c0-26 21-47 47-47l276 0c26 0 47 21 47 47l0 351c0 0 0 1 0 2z m-40 10l-41 0 0 42 21-21z m-7-387l-276 0c-13 1-23 11-23 24l0 398c1 12 11 22 23 23l219 0 0-70c0-6 5-11 11-11l69 0 0-340c0-13-10-23-23-24z m-230 367l61 0c7 0 13 6 13 13 0 7-6 12-13 12l-61 0c-7 0-13-5-13-12 0-7 6-13 13-13z m184-38l-184 0c-7 0-13-6-13-13 0-7 6-12 13-12l184 0c7 0 13 5 13 12 0 7-6 13-13 13z m0-63l-184 0c-7 0-13-5-13-12 0-7 6-13 13-13l184 0c7 0 13 6 13 13 0 7-6 12-13 12z m0-62l-184 0c-7 0-13-6-13-13 0-7 6-12 13-12l184 0c7 0 13 5 13 12 0 7-6 13-13 13z m-50-75c0 7-5 12-11 12l-123 0c-7 0-13-5-13-12 0-7 6-13 13-13l123 0c3 0 6 2 8 4 3 3 4 6 3 9z m42-31l-45-47-15 16c-3 2-6 3-9 3-3 0-6-1-8-3-4-5-4-12 0-17l25-24c2-3 5-4 8-4 3 0 6 2 8 4l52 54c5 5 5 12 0 17-4 4-11 5-16 1z"/>
</font>
</defs>
</svg>
